Loading...
Loading...

The Green Mile (1999) (1080p x265 HEVC 10bit AAC 5 1) [Prof]

Seeders: 2
Leechers: n/a
Completed: n/a

Age: 3 months    Visits: 126    Category: Movies    Size: 9.8 GB

Posted by: Prof    Comments: Read Comments

Info Hash: 4B5852CAD8EFE50C2EC95B5333F6EA99D2FBE2F0



Torrent Description



Format : Matroska
Format version : Version 4 / Version 2
File size : 9.79 GiB
Duration : 3 h 8 min
Overall bit rate : 7 430 kb/s
Movie name : GREEN_MILE_THE
Encoded date : UTC 2018-03-13 10:05:03
Writing application : mkvmerge v9.6.0 ('Slave To Your Mind') 64bit
Writing library : libebml v1.3.4 + libmatroska v1.4.5

Video
ID : 1
Format : HEVC
Format/Info : High Efficiency Video Coding
Format profile : Main [email protected]@Main
Codec ID : V_MPEGH/ISO/HEVC
Duration : 3 h 8 min
Bit rate : 6 473 kb/s
Width : 1 920 pixels
Height : 1 080 pixels
Display aspect ratio : 16:9
Frame rate mode : Constant
Frame rate : 23.976 (24000/1001) FPS
Color space : YUV
Chroma subsampling : 4:2:0
Bit depth : 10 bits
Bits/(Pixel*Frame) : 0.130
Stream size : 8.53 GiB (87%)
Writing library : x265 2.1+69-c97c64ab8b8e:[Windows][GCC 6.2.0][64 bit] 10bit
Encoding settings : cpuid=1173503 / frame-threads=2 / numa-pools=4 / wpp / no-pmode / no-pme / no-psnr / no-ssim / log-level=2 / input-csp=1 / input-res=1920x1080 / interlace=0 / total-frames=271359 / level-idc=0 / high-tier=1 / uhd-bd=0 / ref=4 / no-allow-non-conformance / no-repeat-headers / annexb / no-aud / no-hrd / info / hash=0 / no-temporal-layers / open-gop / min-keyint=23 / keyint=250 / bframes=4 / b-adapt=2 / b-pyramid / bframe-bias=0 / rc-lookahead=25 / lookahead-slices=4 / scenecut=40 / no-intra-refresh / ctu=64 / min-cu-size=8 / rect / no-amp / max-tu-size=32 / tu-inter-depth=1 / tu-intra-depth=1 / limit-tu=0 / rdoq-level=2 / signhide / no-tskip / nr-intra=0 / nr-inter=0 / no-constrained-intra / strong-intra-smoothing / max-merge=3 / limit-refs=3 / limit-modes / me=3 / subme=3 / merange=57 / temporal-mvp / weightp / no-weightb / no-analyze-src-pics / deblock=0:0 / sao / no-sao-non-deblock / rd=4 / no-early-skip / rskip / no-fast-intra / no-tskip-fast / no-cu-lossless / no-b-intra / rdpenalty=0 / psy-rd=2.00 / psy-rdoq=1.00 / no-rd-refine / analysis-mode=0 / no-lossless / cbqpoffs=0 / crqpoffs=0 / rc=crf / crf=18.0 / qcomp=0.60 / qpstep=4 / stats-write=0 / stats-read=0 / ipratio=1.40 / pbratio=1.30 / aq-mode=1 / aq-strength=1.00 / cutree / zone-count=0 / no-strict-cbr / qg-size=32 / no-rc-grain / qpmax=69 / qpmin=0 / sar=0 / overscan=0 / videoformat=5 / range=0 / colorprim=2 / transfer=2 / colormatrix=2 / chromaloc=0 / display-window=0 / max-cll=0,0 / min-luma=0 / max-luma=1023 / log2-max-poc-lsb=8 / vui-timing-info / vui-hrd-info / slices=1 / opt-qp-pps / opt-ref-list-length-pps / no-multi-pass-opt-rps / scenecut-bias=0.05
Default : Yes
Forced : No

Audio
ID : 2
Format : AAC
Format/Info : Advanced Audio Codec
Format profile : LC
Codec ID : A_AAC
Duration : 3 h 8 min
Bit rate : 944 kb/s
Channel(s) : 6 channels
Channel positions : Front: L C R, Side: L R, LFE
Sampling rate : 48.0 kHz
Frame rate : 46.875 FPS (1024 spf)
Compression mode : Lossy
Delay relative to video : 9 ms
Stream size : 1.24 GiB (13%)
Language : English
Default : No
Forced : No

Text
ID : 3
Format : PGS
Muxing mode : zlib
Codec ID : S_HDMV/PGS
Codec ID/Info : Picture based subtitle format used on BDs/HD-DVDs
Duration : 3 h 7 min
Bit rate : 10.9 kb/s
Count of elements : 3988
Stream size : 14.7 MiB (0%)
Language : English
Default : No
Forced : No

Menu
00:00:00.000 : en:Chapter 01
00:03:59.697 : en:Chapter 02
00:07:41.461 : en:Chapter 03
00:10:24.457 : en:Chapter 04
00:15:50.282 : en:Chapter 05
00:18:16.845 : en:Chapter 06
00:21:51.893 : en:Chapter 07
00:25:14.137 : en:Chapter 08
00:27:10.795 : en:Chapter 09
00:30:51.808 : en:Chapter 10
00:36:25.600 : en:Chapter 11
00:41:33.657 : en:Chapter 12
00:43:57.843 : en:Chapter 13
00:45:54.877 : en:Chapter 14
00:47:47.239 : en:Chapter 15
00:51:15.030 : en:Chapter 16
00:53:31.875 : en:Chapter 17
00:55:14.394 : en:Chapter 18
01:00:37.967 : en:Chapter 19
01:05:15.077 : en:Chapter 20
01:08:24.767 : en:Chapter 21
01:14:12.030 : en:Chapter 22
01:16:13.902 : en:Chapter 23
01:21:46.943 : en:Chapter 24
01:24:09.210 : en:Chapter 25
01:27:36.501 : en:Chapter 26
01:30:37.765 : en:Chapter 27
01:33:26.267 : en:Chapter 28
01:36:38.334 : en:Chapter 29
01:40:09.461 : en:Chapter 30
01:44:22.005 : en:Chapter 31
01:48:01.933 : en:Chapter 32
01:52:39.544 : en:Chapter 33
01:55:04.355 : en:Chapter 34
01:59:51.601 : en:Chapter 35
02:03:49.547 : en:Chapter 36
02:05:50.251 : en:Chapter 37
02:07:56.502 : en:Chapter 38
02:10:52.761 : en:Chapter 39
02:14:12.044 : en:Chapter 40
02:17:56.643 : en:Chapter 41
02:21:22.265 : en:Chapter 42
02:25:51.868 : en:Chapter 43
02:30:05.371 : en:Chapter 44
02:34:26.590 : en:Chapter 45
02:36:01.560 : en:Chapter 46
02:38:20.032 : en:Chapter 47
02:42:07.843 : en:Chapter 48
02:44:12.467 : en:Chapter 49
02:48:52.330 : en:Chapter 50
02:53:01.412 : en:Chapter 51
02:55:49.455 : en:Chapter 52
03:00:34.824 : en:Chapter 53



Recently Added Torrents in Movies

Trackers List

tracker name
udp://tracker.opentrackr.org:1337/announce
udp://tracker.leechers-paradise.org:6969/announce
udp://tracker.pirateparty.gr:6969/announce
udp://tracker.coppersurfer.tk:6969/announce
udp://tracker.mg64.net:2710/announce
udp://tracker.zer0day.to:1337/announce

Sharing Widget


Download torrent
9.8 GB
Seeders: 2
Leechers: n/a
The Green Mile (1999) (1080p x265 HEVC 10bit AAC 5 1) [Prof]