Loading...
Loading...

Nickelback 1998 - 2017

Seeders: 1
Leechers: n/a
Completed: 69

Age: 3 months    Visits: 143    Category: Music    Size: 731.5 MB

Posted by: KATJohnRambo    Comments: Read Comments

Info Hash: 9AF012FB51D78097AE5B327D204A5792874FC115



Torrent Description







--------------------------------------------------------------------------------
Analyzed: Nickelback / The State
--------------------------------------------------------------------------------

DR         Peak         RMS     Duration Track
--------------------------------------------------------------------------------
DR11      -6.13 dB   -20.13 dB      3:54 01-Breathe
DR12      -7.65 dB   -21.94 dB      3:50 02-Cowboy Hat
DR12      -7.74 dB   -22.50 dB      3:25 03-Leader Of Men
DR10      -8.22 dB   -20.27 dB      2:41 04-Old Enough
DR11      -7.90 dB   -22.48 dB      4:01 05-Worthy To Say
DR12      -6.95 dB   -20.92 dB      2:58 06-Diggin' This
DR12      -6.97 dB   -20.62 dB      2:46 07-Deep
DR11      -6.79 dB   -19.77 dB      3:25 08-One Last Run
DR12      -6.39 dB   -20.90 dB      3:38 09-Not Leavin' Yet
DR12      -7.24 dB   -20.52 dB      4:00 10-Hold Out Your Hand
DR13      -8.18 dB   -23.60 dB      3:20 11-Leader Of Men (Acoustic)
--------------------------------------------------------------------------------

Number of tracks:  11
Official DR value: DR12

Samplerate:        48000 Hz
Channels:          2
Bitrate:           320 kbps
Codec:             MP3
================================================================================







--------------------------------------------------------------------------------
Analyzed: Nickelback / Silver Side Up
--------------------------------------------------------------------------------

DR         Peak         RMS     Duration Track
--------------------------------------------------------------------------------
DR11      -6.70 dB   -19.56 dB      4:16 01-Never Again
DR11      -5.65 dB   -20.43 dB      3:39 02-How You Remind Me
DR12      -6.17 dB   -20.02 dB      3:45 03-Woke Up This Morning
DR12      -5.71 dB   -20.04 dB      3:47 04-Too Bad
DR11      -6.26 dB   -19.94 dB      3:58 05-Just For
DR11      -6.15 dB   -20.13 dB      3:00 06-Hollywood
DR11      -6.46 dB   -20.10 dB      3:21 07-Money Bought
DR11      -6.90 dB   -19.72 dB      3:33 08-Where Do I Hide
DR12      -6.99 dB   -21.25 dB      3:50 09-Hangnail
DR12      -7.85 dB   -22.30 dB      5:12 10-Good Times Gone
--------------------------------------------------------------------------------

Number of tracks:  10
Official DR value: DR11

Samplerate:        48000 Hz
Channels:          2
Bitrate:           320 kbps
Codec:             MP3
================================================================================







--------------------------------------------------------------------------------
Analyzed: Nickelback / The Long Road
--------------------------------------------------------------------------------

DR         Peak         RMS     Duration Track
--------------------------------------------------------------------------------
DR11      -7.09 dB   -19.40 dB      2:02 01-Flat On The Floor
DR12      -6.37 dB   -20.51 dB      3:58 02-Do This Anymore
DR12      -6.47 dB   -21.07 dB      3:23 03-Someday
DR11      -7.50 dB   -20.88 dB      4:03 04-Believe It Or Not
DR11      -7.88 dB   -21.45 dB      4:10 05-Feelin' Way To Damn Good
DR11      -7.91 dB   -21.06 dB      3:28 06-Because Of You
DR11      -6.36 dB   -19.55 dB      3:46 07-Figured You Out
DR12      -6.40 dB   -20.74 dB      3:38 08-Should've Listened
DR12      -6.67 dB   -19.74 dB      3:50 09-Throw Yourself Away
DR11      -6.36 dB   -19.64 dB      3:31 10-Another Hole In The Dead
DR11      -7.49 dB   -21.24 dB      4:00 11-See You At The Show
--------------------------------------------------------------------------------

Number of tracks:  11
Official DR value: DR11

Samplerate:        48000 Hz
Channels:          2
Bitrate:           320 kbps
Codec:             MP3
================================================================================







--------------------------------------------------------------------------------
Analyzed: Nickelback / All The Right Reasons
--------------------------------------------------------------------------------

DR         Peak         RMS     Duration Track
--------------------------------------------------------------------------------
DR11      -6.04 dB   -18.98 dB      4:16 01-Follow You Home
DR11      -5.95 dB   -19.05 dB      3:38 02-Fight For All The Wrong Reasons
DR11      -6.09 dB   -19.92 dB      4:16 03-Photograph
DR11      -6.60 dB   -19.20 dB      3:00 04-Animals
DR11      -6.98 dB   -20.52 dB      3:35 05-Savin' Me
DR12      -6.28 dB   -21.16 dB      3:54 06-Far Away
DR11      -6.78 dB   -19.84 dB      3:30 07-Next Contestant
DR11      -6.67 dB   -19.31 dB      2:55 08-Side Of A Bullet
DR11      -6.48 dB   -20.52 dB      3:32 09-If Everyone Cared
DR11      -6.81 dB   -19.14 dB      3:55 10-Someone That You're With
DR11      -7.66 dB   -20.53 dB      4:10 11-Rockstar
--------------------------------------------------------------------------------

Number of tracks:  11
Official DR value: DR11

Samplerate:        48000 Hz
Channels:          2
Bitrate:           320 kbps
Codec:             MP3
================================================================================







--------------------------------------------------------------------------------
Analyzed: Nickelback / Dark Horse
--------------------------------------------------------------------------------

DR         Peak         RMS     Duration Track
--------------------------------------------------------------------------------
DR13      -6.54 dB   -21.66 dB      3:34 01-Something In Your Mouth
DR11      -6.82 dB   -21.52 dB      3:25 02-Burn It To The Ground
DR10      -9.56 dB   -21.89 dB      4:07 03-Gotta Be Somebody
DR11      -9.69 dB   -24.20 dB      4:18 04-I'd Come For You
DR12      -7.05 dB   -23.00 dB      3:38 05-Next Go Round
DR11      -7.40 dB   -22.01 dB      3:56 06-Just To Get High
DR11      -7.92 dB   -22.00 dB      3:43 07-Never Gonna Be Alone
DR12      -7.37 dB   -21.60 dB      3:36 08-Shakin' Hands
DR12      -6.33 dB   -21.35 dB      3:49 09-S.E.X
DR12      -8.54 dB   -23.02 dB      4:04 10-If Today Was Your Last Day
DR12     -10.94 dB   -25.50 dB      4:28 11-This Afternoon
--------------------------------------------------------------------------------

Number of tracks:  11
Official DR value: DR12

Samplerate:        48000 Hz
Channels:          2
Bitrate:           320 kbps
Codec:             MP3
================================================================================







--------------------------------------------------------------------------------
Analyzed: Nickelback / Here And Now
--------------------------------------------------------------------------------

DR         Peak         RMS     Duration Track
--------------------------------------------------------------------------------
DR12      -6.88 dB   -21.03 dB      3:16 01-This Means War
DR13      -6.97 dB   -21.90 dB      3:32 02-Bottoms Up
DR14      -8.27 dB   -23.52 dB      3:05 03-When We Stand Together
DR12      -8.04 dB   -22.40 dB      3:10 04-Midnight Queen
DR12      -8.68 dB   -22.42 dB      3:36 05-Gotta Get Me Some
DR11      -9.18 dB   -23.84 dB      3:40 06-Lullaby
DR13      -6.69 dB   -21.87 dB      3:28 07-Kiss It Goodbye
DR12      -8.36 dB   -22.38 dB      4:05 08-Trying Not To Love You
DR12      -8.04 dB   -22.18 dB      3:47 09-Holding On To Heaven
DR12      -8.33 dB   -22.57 dB      3:21 10-Everything I Wanna Do
DR12      -8.74 dB   -22.30 dB      3:44 11-Don't Ever Let It End
--------------------------------------------------------------------------------

Number of tracks:  11
Official DR value: DR12

Samplerate:        48000 Hz
Channels:          2
Bitrate:           320 kbps
Codec:             MP3
================================================================================







--------------------------------------------------------------------------------
Analyzed: Nickelback / No Fixed Address
--------------------------------------------------------------------------------

DR         Peak         RMS     Duration Track
--------------------------------------------------------------------------------
DR8       -7.96 dB   -18.08 dB      4:07 01-Million Miles An Hour
DR9       -6.68 dB   -17.22 dB      3:58 02-Edge Of A Revolution
DR8       -6.44 dB   -18.19 dB      3:35 03-What Are You Waiting For
DR10      -6.33 dB   -19.21 dB      3:51 04-She Keeps Me Up
DR9       -5.74 dB   -18.64 dB      3:28 05-Make Me Believe Again
DR9       -7.00 dB   -19.54 dB      3:51 06-Satellite
DR9       -6.51 dB   -18.13 dB      3:47 07-Get 'Em Up
DR8       -7.29 dB   -18.36 dB      4:17 08-The Hammer's Coming Down
DR9       -6.37 dB   -18.04 dB      3:56 09-Miss You
DR9       -6.79 dB   -18.47 dB      3:58 10-Got Me Runnin' Round
DR9       -6.14 dB   -19.35 dB      3:20 11-Sister Sin
--------------------------------------------------------------------------------

Number of tracks:  11
Official DR value: DR9

Samplerate:        48000 Hz
Channels:          2
Bitrate:           320 kbps
Codec:             MP3
================================================================================







--------------------------------------------------------------------------------
Analyzed: Nickelback / Feed The Machine
--------------------------------------------------------------------------------

DR         Peak         RMS     Duration Track
--------------------------------------------------------------------------------
DR10      -6.56 dB   -18.94 dB      4:53 01-Feed The Machine
DR10      -8.00 dB   -19.91 dB      4:41 02-Coin For The Ferryman
DR10      -6.98 dB   -20.19 dB      3:45 03-Song On Fire
DR11      -7.42 dB   -20.57 dB      3:34 04-Must Be Nice
DR11      -6.66 dB   -20.75 dB      3:27 05-After The Rain
DR10      -6.93 dB   -19.42 dB      3:21 06-For The River
DR10      -7.48 dB   -20.65 dB      3:47 07-Home
DR9       -7.55 dB   -19.94 dB      4:10 08-The Betrayal (Act III)
DR10      -7.17 dB   -19.88 dB      3:45 09-Silent Majority
DR10      -7.53 dB   -20.73 dB      3:45 10-Every Time We're Together
--------------------------------------------------------------------------------

Number of tracks:  10
Official DR value: DR10

Samplerate:        48000 Hz
Channels:          2
Bitrate:           320 kbps
Codec:             MP3
================================================================================






Recently Added Torrents in Music

Trackers List

tracker name
udp://tracker.opentrackr.org:1337/announce
udp://tracker.leechers-paradise.org:6969/announce
udp://tracker.pirateparty.gr:6969/announce
udp://tracker.coppersurfer.tk:6969/announce
udp://tracker.mg64.net:2710/announce
udp://tracker.zer0day.to:1337/announce

Sharing Widget


Download torrent
731.5 MB
Seeders: 1
Leechers: n/a
Nickelback 1998 - 2017