Loading...
Loading...

Nickelback 1998 - 2017 (24-96)

Seeders: n/a
Leechers: n/a
Completed: n/a

Age: 3 months    Visits: 155    Category: Music    Size: 2.5 GB

Posted by: KATJohnRambo    Comments: Read Comments

Info Hash: AD0B2C001017867A9097E61FE5AD4BAFEF84C5E4



Torrent Description







--------------------------------------------------------------------------------
Analyzed: Nickelback / The State
--------------------------------------------------------------------------------

DR         Peak         RMS     Duration Track
--------------------------------------------------------------------------------
DR11      -6.04 dB   -20.13 dB      3:54 01-Breathe
DR12      -7.73 dB   -21.94 dB      3:50 02-Cowboy Hat
DR12      -7.74 dB   -22.50 dB      3:25 03-Leader Of Men
DR10      -8.20 dB   -20.27 dB      2:41 04-Old Enough
DR11      -7.88 dB   -22.48 dB      4:01 05-Worthy To Say
DR12      -6.98 dB   -20.92 dB      2:58 06-Diggin' This
DR12      -6.83 dB   -20.62 dB      2:46 07-Deep
DR11      -6.67 dB   -19.77 dB      3:25 08-One Last Run
DR12      -6.40 dB   -20.90 dB      3:38 09-Not Leavin' Yet
DR12      -6.90 dB   -20.52 dB      4:00 10-Hold Out Your Hand
DR13      -8.11 dB   -23.60 dB      3:20 11-Leader Of Men (Acoustic)
--------------------------------------------------------------------------------

Number of tracks:  11
Official DR value: DR12

Samplerate:        96000 Hz
Channels:          2
Bits per sample:   24
Bitrate:           1062 kbps
Codec:             FLAC
================================================================================







--------------------------------------------------------------------------------
Analyzed: Nickelback / Silver Side Up
--------------------------------------------------------------------------------

DR         Peak         RMS     Duration Track
--------------------------------------------------------------------------------
DR11      -6.72 dB   -19.55 dB      4:16 01-Never Again
DR11      -5.73 dB   -20.43 dB      3:39 02-How You Remind Me
DR12      -6.13 dB   -20.02 dB      3:45 03-Woke Up This Morning
DR12      -5.74 dB   -20.04 dB      3:47 04-Too Bad
DR11      -6.22 dB   -19.94 dB      3:58 05-Just For
DR11      -5.94 dB   -20.13 dB      3:00 06-Hollywood
DR11      -6.46 dB   -20.10 dB      3:21 07-Money Bought
DR11      -6.76 dB   -19.72 dB      3:33 08-Where Do I Hide
DR12      -6.99 dB   -21.24 dB      3:50 09-Hangnail
DR12      -7.78 dB   -22.29 dB      5:12 10-Good Times Gone
--------------------------------------------------------------------------------

Number of tracks:  10
Official DR value: DR11

Samplerate:        96000 Hz
Channels:          2
Bits per sample:   24
Bitrate:           1007 kbps
Codec:             FLAC
================================================================================







--------------------------------------------------------------------------------
Analyzed: Nickelback / The Long Road
--------------------------------------------------------------------------------

DR         Peak         RMS     Duration Track
--------------------------------------------------------------------------------
DR11      -7.07 dB   -19.40 dB      2:02 01-Flat On The Floor
DR12      -6.37 dB   -20.51 dB      3:58 02-Do This Anymore
DR12      -6.44 dB   -21.07 dB      3:23 03-Someday
DR11      -7.19 dB   -20.88 dB      4:03 04-Believe It Or Not
DR11      -7.73 dB   -21.45 dB      4:10 05-Feelin' Way To Damn Good
DR11      -7.84 dB   -21.06 dB      3:28 06-Because Of You
DR11      -6.19 dB   -19.55 dB      3:46 07-Figured You Out
DR12      -6.34 dB   -20.74 dB      3:38 08-Should've Listened
DR12      -6.68 dB   -19.74 dB      3:50 09-Throw Yourself Away
DR11      -6.37 dB   -19.64 dB      3:31 10-Another Hole In The Dead
DR12      -7.47 dB   -21.23 dB      4:00 11-See You At The Show
--------------------------------------------------------------------------------

Number of tracks:  11
Official DR value: DR11

Samplerate:        96000 Hz
Channels:          2
Bits per sample:   24
Bitrate:           1112 kbps
Codec:             FLAC
================================================================================







--------------------------------------------------------------------------------
Analyzed: Nickelback / All The Right Reasons
--------------------------------------------------------------------------------

DR         Peak         RMS     Duration Track
--------------------------------------------------------------------------------
DR11      -6.00 dB   -18.98 dB      4:16 01-Follow You Home
DR11      -5.83 dB   -19.04 dB      3:38 02-Fight For All The Wrong Reasons
DR11      -6.12 dB   -19.92 dB      4:16 03-Photograph
DR11      -6.51 dB   -19.20 dB      3:00 04-Animals
DR11      -6.97 dB   -20.52 dB      3:35 05-Savin' Me
DR12      -6.25 dB   -21.16 dB      3:54 06-Far Away
DR11      -6.75 dB   -19.84 dB      3:30 07-Next Contestant
DR11      -6.67 dB   -19.31 dB      2:55 08-Side Of A Bullet
DR11      -6.43 dB   -20.52 dB      3:32 09-If Everyone Cared
DR11      -6.76 dB   -19.13 dB      3:55 10-Someone That You're With
DR11      -7.58 dB   -20.52 dB      4:10 11-Rockstar
--------------------------------------------------------------------------------

Number of tracks:  11
Official DR value: DR11

Samplerate:        96000 Hz
Channels:          2
Bits per sample:   24
Bitrate:           1125 kbps
Codec:             FLAC
================================================================================







--------------------------------------------------------------------------------
Analyzed: Nickelback / Dark Horse
--------------------------------------------------------------------------------

DR         Peak         RMS     Duration Track
--------------------------------------------------------------------------------
DR13      -6.62 dB   -21.66 dB      3:34 01-Something In Your Mouth
DR11      -6.77 dB   -21.52 dB      3:25 02-Burn It To The Ground
DR10      -9.58 dB   -21.89 dB      4:07 03-Gotta Be Somebody
DR11      -9.54 dB   -24.20 dB      4:18 04-I'd Come For You
DR12      -7.07 dB   -23.00 dB      3:38 05-Next Go Round
DR11      -6.96 dB   -22.00 dB      3:56 06-Just To Get High
DR11      -8.04 dB   -22.00 dB      3:43 07-Never Gonna Be Alone
DR12      -7.31 dB   -21.60 dB      3:36 08-Shakin' Hands
DR12      -6.23 dB   -21.34 dB      3:49 09-S.E.X
DR12      -8.19 dB   -23.02 dB      4:04 10-If Today Was Your Last Day
DR12     -10.98 dB   -25.50 dB      4:28 11-This Afternoon
--------------------------------------------------------------------------------

Number of tracks:  11
Official DR value: DR12

Samplerate:        96000 Hz
Channels:          2
Bits per sample:   24
Bitrate:           1074 kbps
Codec:             FLAC
================================================================================







--------------------------------------------------------------------------------
Analyzed: Nickelback / Here And Now
--------------------------------------------------------------------------------

DR         Peak         RMS     Duration Track
--------------------------------------------------------------------------------
DR12      -6.75 dB   -21.03 dB      3:16 01-This Means War
DR13      -6.90 dB   -21.90 dB      3:32 02-Bottoms Up
DR14      -7.99 dB   -23.52 dB      3:05 03-When We Stand Together
DR12      -7.79 dB   -22.40 dB      3:10 04-Midnight Queen
DR12      -8.70 dB   -22.42 dB      3:36 05-Gotta Get Me Some
DR12      -9.14 dB   -23.84 dB      3:40 06-Lullaby
DR13      -6.59 dB   -21.86 dB      3:28 07-Kiss It Goodbye
DR12      -8.35 dB   -22.37 dB      4:05 08-Trying Not To Love You
DR12      -8.01 dB   -22.18 dB      3:47 09-Holding On To Heaven
DR12      -8.27 dB   -22.57 dB      3:21 10-Everything I Wanna Do
DR12      -8.41 dB   -22.30 dB      3:44 11-Don't Ever Let It End
--------------------------------------------------------------------------------

Number of tracks:  11
Official DR value: DR12

Samplerate:        96000 Hz
Channels:          2
Bits per sample:   24
Bitrate:           1094 kbps
Codec:             FLAC
================================================================================







--------------------------------------------------------------------------------
Analyzed: Nickelback / No Fixed Address
--------------------------------------------------------------------------------

DR         Peak         RMS     Duration Track
--------------------------------------------------------------------------------
DR8       -7.87 dB   -18.07 dB      4:07 01-Million Miles An Hour
DR9       -6.37 dB   -17.22 dB      3:58 02-Edge Of A Revolution
DR8       -6.13 dB   -18.19 dB      3:35 03-What Are You Waiting For
DR10      -6.21 dB   -19.21 dB      3:51 04-She Keeps Me Up
DR9       -5.80 dB   -18.63 dB      3:28 05-Make Me Believe Again
DR9       -7.00 dB   -19.54 dB      3:51 06-Satellite
DR9       -6.56 dB   -18.13 dB      3:47 07-Get 'Em Up
DR8       -7.21 dB   -18.36 dB      4:17 08-The Hammer's Coming Down
DR9       -6.38 dB   -18.04 dB      3:56 09-Miss You
DR9       -6.59 dB   -18.47 dB      3:58 10-Got Me Runnin' Round
DR10      -6.05 dB   -19.35 dB      3:20 11-Sister Sin
--------------------------------------------------------------------------------

Number of tracks:  11
Official DR value: DR9

Samplerate:        96000 Hz
Channels:          2
Bits per sample:   24
Bitrate:           1114 kbps
Codec:             FLAC
================================================================================







--------------------------------------------------------------------------------
Analyzed: Nickelback / Feed The Machine
--------------------------------------------------------------------------------

DR         Peak         RMS     Duration Track
--------------------------------------------------------------------------------
DR10      -6.59 dB   -18.94 dB      4:53 01-Feed The Machine
DR10      -7.88 dB   -19.91 dB      4:41 02-Coin For The Ferryman
DR10      -6.99 dB   -20.19 dB      3:45 03-Song On Fire
DR11      -7.29 dB   -20.56 dB      3:34 04-Must Be Nice
DR11      -6.72 dB   -20.75 dB      3:27 05-After The Rain
DR10      -6.92 dB   -19.42 dB      3:21 06-For The River
DR10      -7.51 dB   -20.65 dB      3:47 07-Home
DR10      -7.55 dB   -19.93 dB      4:10 08-The Betrayal (Act III)
DR10      -7.06 dB   -19.88 dB      3:45 09-Silent Majority
DR10      -7.48 dB   -20.73 dB      3:45 10-Every Time We're Together
--------------------------------------------------------------------------------

Number of tracks:  10
Official DR value: DR10

Samplerate:        96000 Hz
Channels:          2
Bits per sample:   24
Bitrate:           1167 kbps
Codec:             FLAC
================================================================================





Recently Added Torrents in Music

Trackers List

tracker name
udp://tracker.opentrackr.org:1337/announce
udp://tracker.leechers-paradise.org:6969/announce
udp://tracker.pirateparty.gr:6969/announce
udp://tracker.coppersurfer.tk:6969/announce
udp://tracker.mg64.net:2710/announce
udp://tracker.zer0day.to:1337/announce

Sharing Widget


Download torrent
2.5 GB
Seeders: n/a
Leechers: n/a
Nickelback 1998 - 2017 (24-96)