Loading...
Loading...

Milenge Milenge (2010) HDRip 720p Hindi AVC ACC - LatestHDMovies

Seeders: 1
Leechers: 1
Completed: 269

Age: 3 months    Visits: 178    Category: Movies    Size: 1,023.0 MB

Posted by: LHDM    Comments: Read Comments

Info Hash: FEF7013B50CBD4D1783D93180548937599E1FDFE



Torrent Description








[[[[[>>SAMPLE<<]]]]]
https://openload.co/f/7WDNUxENheg/vlc-record-2018-03-14-05h51m23s-LatestHDMovies___TeamLHDM-.mp4







General
Complete name : Milenge Milenge (2010) HDRip 720p Hindi AVC ACC - LatestHDMovies.MP4
Format : MPEG-4
Format profile : Base Media
Codec ID : isom (isom/iso2/avc1/mp41)
File size : 1 023 MiB
Duration : 1 h 57 min
Overall bit rate : 1 222 kb/s
Movie name : LatestHDMovies | TeamLHDM
Writing application : Lavf57.83.100
Cover : Yes

Video
ID : 1
Format : AVC
Format/Info : Advanced Video Codec
Format profile : [email protected]
Format settings : CABAC / 5 Ref Frames
Format settings, CABAC : Yes
Format settings, ReFrames : 5 frames
Codec ID : avc1
Codec ID/Info : Advanced Video Coding
Duration : 1 h 57 min
Bit rate : 1 088 kb/s
Width : 1 280 pixels
Height : 544 pixels
Display aspect ratio : 2.35:1
Frame rate mode : Constant
Frame rate : 24.000 FPS
Color space : YUV
Chroma subsampling : 4:2:0
Bit depth : 8 bits
Scan type : Progressive
Bits/(Pixel*Frame) : 0.065
Stream size : 911 MiB (89%)
Writing library : x264 core 148 r2643 5c65704
Encoding settings : cabac=1 / ref=5 / deblock=1:0:0 / analyse=0x3:0x113 / me=hex / subme=7 / psy=1 / psy_rd=1.00:0.00 / mixed_ref=1 / me_range=16 / chroma_me=1 / trellis=1 / 8x8dct=1 / cqm=0 / deadzone=21,11 / fast_pskip=1 / chroma_qp_offset=-2 / threads=8 / lookahead_threads=8 / sliced_threads=1 / slices=8 / nr=0 / decimate=1 / interlaced=0 / bluray_compat=0 / constrained_intra=0 / bframes=0 / weightp=2 / keyint=250 / keyint_min=24 / scenecut=40 / intra_refresh=0 / rc=abr / mbtree=0 / bitrate=1088 / ratetol=1.0 / qcomp=0.60 / qpmin=0 / qpmax=69 / qpstep=4 / ip_ratio=1.40 / aq=1:1.00
Language : English

Audio
ID : 2
Format : AAC
Format/Info : Advanced Audio Codec
Format profile : LC
Codec ID : mp4a-40-2
Duration : 1 h 57 min
Source duration : 1 h 57 min
Bit rate mode : Constant
Bit rate : 128 kb/s
Channel(s) : 2 channels
Channel positions : Front: L R
Sampling rate : 44.1 kHz
Frame rate : 43.066 FPS (1024 SPF)
Compression mode : Lossy
Stream size : 107 MiB (10%)
Source stream size : 107 MiB (10%)
Default : Yes
Alternate group : 1







Recently Added Torrents in Movies

Trackers List

tracker name
udp://tracker.opentrackr.org:1337/announce
udp://tracker.leechers-paradise.org:6969/announce
udp://tracker.pirateparty.gr:6969/announce
udp://tracker.coppersurfer.tk:6969/announce
udp://tracker.mg64.net:2710/announce
udp://tracker.zer0day.to:1337/announce

Sharing Widget


Download torrent
1,023.0 MB
Seeders: 1
Leechers: 1
Milenge Milenge (2010) HDRip 720p Hindi AVC ACC - LatestHDMovies