Loading...
Loading...

Hitch (2005) (1080p BluRay x265 HEVC 10bit AAC 5 1 Vyndros)

Seeders: 4
Leechers: 1
Completed: 150

Age: 3 months    Visits: 144    Category: Movies    Size: 3.5 GB

Posted by: Vyndros    Comments: Read Comments

Info Hash: 7C8A25CFD8A3ECDA7E7121781F7F2BD2EEE1C969



Torrent Description











Media Information

Code:

General
Format : Matroska
Format version : Version 4 / Version 2
File size : 3.49 GiB
Duration : 1 h 58 min
Overall bit rate : 4 226 kb/s
Movie name : Hitch 2005 1080p Blu-ray Remux MPEG-2 DTS-HD MA 5.1 - KRaLiMaRKo
Encoded date : UTC 2018-03-12 17:31:17
Writing application : mkvmerge v20.0.0 ('I Am The Sun') 64-bit
Writing library : libebml v1.3.5 + libmatroska v1.4.8
Writing frontend : StaxRip v1.7.0.6

Video
ID : 1
Format : HEVC
Format/Info : High Efficiency Video Coding
Format profile : Main [email protected]@Main
Codec ID : V_MPEGH/ISO/HEVC
Duration : 1 h 58 min
Bit rate : 3 740 kb/s
Width : 1 920 pixels
Height : 800 pixels
Display aspect ratio : 2.40:1
Frame rate mode : Constant
Frame rate : 23.976 (24000/1001) FPS
Color space : YUV
Chroma subsampling : 4:2:0
Bit depth : 10 bits
Bits/(Pixel*Frame) : 0.102
Stream size : 3.09 GiB (88%)
Writing library : x265 2.7+8-613d9f443769:[Windows][GCC 7.3.0][64 bit] 10bit
Encoding settings : cpuid=1173503 / frame-threads=3 / numa-pools=12 / wpp / no-pmode / no-pme / no-psnr / ssim / log-level=2 / input-csp=1 / input-res=1920x800 / interlace=0 / total-frames=170136 / level-idc=0 / high-tier=1 / uhd-bd=0 / ref=3 / no-allow-non-conformance / no-repeat-headers / annexb / no-aud / no-hrd / info / hash=0 / no-temporal-layers / open-gop / min-keyint=23 / keyint=250 / gop-lookahead=0 / bframes=8 / b-adapt=2 / b-pyramid / bframe-bias=0 / rc-lookahead=50 / lookahead-slices=5 / scenecut=40 / radl=0 / no-intra-refresh / ctu=64 / min-cu-size=8 / no-rect / no-amp / max-tu-size=32 / tu-inter-depth=1 / tu-intra-depth=1 / limit-tu=0 / rdoq-level=0 / dynamic-rd=0.00 / no-ssim-rd / signhide / no-tskip / nr-intra=0 / nr-inter=0 / no-constrained-intra / no-strong-intra-smoothing / max-merge=3 / limit-refs=3 / no-limit-modes / me=3 / subme=3 / merange=57 / temporal-mvp / weightp / no-weightb / no-analyze-src-pics / deblock=0:0 / sao / no-sao-non-deblock / rd=3 / no-early-skip / no-rskip / no-fast-intra / no-tskip-fast / no-cu-lossless / no-b-intra / no-splitrd-skip / rdpenalty=0 / psy-rd=2.00 / psy-rdoq=0.00 / no-rd-refine / no-lossless / cbqpoffs=0 / crqpoffs=0 / rc=crf / crf=18.0 / qcomp=0.60 / qpstep=4 / stats-write=0 / stats-read=0 / ipratio=1.40 / pbratio=1.30 / aq-mode=3 / aq-strength=1.00 / cutree / zone-count=0 / no-strict-cbr / qg-size=32 / no-rc-grain / qpmax=69 / qpmin=0 / no-const-vbv / sar=0 / overscan=0 / videoformat=5 / range=0 / colorprim=2 / transfer=2 / colormatrix=2 / chromaloc=0 / display-window=0 / max-cll=0,0 / min-luma=0 / max-luma=1023 / log2-max-poc-lsb=8 / vui-timing-info / vui-hrd-info / slices=1 / no-opt-qp-pps / no-opt-ref-list-length-pps / no-multi-pass-opt-rps / scenecut-bias=0.05 / no-opt-cu-delta-qp / no-aq-motion / no-hdr / no-hdr-opt / no-dhdr10-opt / analysis-reuse-level=5 / scale-factor=0 / refine-intra=0 / refine-inter=0 / refine-mv=0 / no-limit-sao / ctu-info=0 / no-lowpass-dct / refine-mv-type=0 / copy-pic=1 / max-ausize-factor=1.0
Default : Yes
Forced : No

Audio
ID : 2
Format : AAC
Format/Info : Advanced Audio Codec
Format profile : LC
Codec ID : A_AAC
Duration : 1 h 58 min
Bit rate : 449 kb/s
Channel(s) : 6 channels
Channel positions : Front: L C R, Side: L R, LFE
Sampling rate : 48.0 kHz
Frame rate : 46.875 FPS (1024 spf)
Compression mode : Lossy
Stream size : 380 MiB (11%)
Language : English
Default : Yes
Forced : Yes

Subtitle #1
ID : 3
Format : PGS
Muxing mode : zlib
Codec ID : S_HDMV/PGS
Codec ID/Info : Picture based subtitle format used on BDs/HD-DVDs
Duration : 1 h 51 min
Bit rate : 64.9 kb/s
Count of elements : 3046
Stream size : 51.9 MiB (1%)
Language : English
Default : No
Forced : No

Subtitle #2
ID : 4
Format : PGS
Muxing mode : zlib
Codec ID : S_HDMV/PGS
Codec ID/Info : Picture based subtitle format used on BDs/HD-DVDs
Duration : 1 h 54 min
Bit rate : 47.6 kb/s
Count of elements : 3634
Stream size : 39.2 MiB (1%)
Language : English
Default : No
Forced : No

Menu
00:00:00.000 : en:Start
00:06:37.067 : en:Sara
00:09:09.701 : en:Hitch in Action
00:13:13.001 : en:Late Bloomer
00:14:54.635 : en:Albert
00:19:18.902 : en:Shock and Awe
00:25:50.603 : en:How It's Done
00:30:05.537 : en:Handy Guy
00:32:54.338 : en:Over and Out
00:35:09.805 : en:Sunday Morning
00:38:33.838 : en:Ellis Island
00:42:07.205 : en:Failing with Flair
00:43:50.139 : en:Working Allegra
00:45:35.107 : en:Basic Training
00:48:58.140 : en:The Fire & the Pizza
00:52:19.674 : en:The Kissing Signal
00:57:04.108 : en:Not a Date
01:03:38.275 : en:Best Not to Love
01:09:12.809 : en:The Morning People
01:13:32.510 : en:Sara Takes Charge
01:16:29.344 : en:"I Like Your Lips."
01:21:14.611 : en:Tossed Salad
01:28:00.678 : en:Exposure
01:35:16.279 : en:Apology
01:37:35.113 : en:"Love Is Your Job."
01:40:11.880 : en:Repairman
01:44:13.280 : en:Square One
01:48:15.514 : en:The Leap



Source Information

Code:

Release:
BluRay Remux




Recently Added Torrents in Movies

Trackers List

tracker name
udp://tracker.opentrackr.org:1337/announce
udp://tracker.leechers-paradise.org:6969/announce
udp://tracker.pirateparty.gr:6969/announce
udp://tracker.coppersurfer.tk:6969/announce
udp://tracker.mg64.net:2710/announce
udp://tracker.zer0day.to:1337/announce

Sharing Widget


Download torrent
3.5 GB
Seeders: 4
Leechers: 1
Hitch (2005) (1080p BluRay x265 HEVC 10bit AAC 5 1 Vyndros)