Loading...
Loading...

Hells Kitty 2018 HDRip AC3 5 1 x264[MW]

Seeders: n/a
Leechers: n/a
Completed: n/a

Age: 3 months    Visits: 147    Category: Movies    Size: 907.3 MB

Posted by: moviezworldz    Comments: Read Comments

Info Hash: 5815AB5A13C87236908178A6CE58EB3360C2B05B



Torrent Description







General
Format : Matroska
Format version : Version 4 / Version 2
File size : 907 MiB
Duration : 1 h 37 min
Overall bit rate : 1 297 kb/s

Video
ID : 1
Format : AVC
Format/Info : Advanced Video Codec
Format profile : [email protected]
Format settings : CABAC / 4 Ref Frames
Format settings, CABAC : Yes
Format settings, RefFrames : 4 frames
Codec ID : V_MPEG4/ISO/AVC
Duration : 1 h 37 min
Bit rate : 900 kb/s
Width : 720 pixels
Height : 400 pixels
Display aspect ratio : 16:9
Frame rate mode : Constant
Frame rate : 23.976 (24000/1001) FPS
Color space : YUV
Chroma subsampling : 4:2:0
Bit depth : 8 bits
Scan type : Progressive
Bits/(Pixel*Frame) : 0.130
Stream size : 638 MiB (70%)
Writing library : x264 core 148 r2708 86b7198
Default : Yes
Forced : No

Audio
ID : 2
Format : AC-3
Format/Info : Audio Coding 3
Codec ID : A_AC3
Duration : 1 h 37 min
Bit rate mode : Constant
Bit rate : 384 kb/s
Channel(s) : 6 channels
Channel positions : Front: L C R, Side: L R, LFE
Sampling rate : 48.0 kHz
Frame rate : 31.250 FPS (1536 SPF)
Bit depth : 16 bits
Compression mode : Lossy
Stream size : 269 MiB (30%)
Language : English
Service kind : Complete Main
Default : Yes
Forced : No














Recently Added Torrents in Movies

Trackers List

tracker name
udp://tracker.opentrackr.org:1337/announce
udp://tracker.leechers-paradise.org:6969/announce
udp://tracker.pirateparty.gr:6969/announce
udp://tracker.coppersurfer.tk:6969/announce
udp://tracker.mg64.net:2710/announce
udp://tracker.zer0day.to:1337/announce

Sharing Widget


Download torrent
907.3 MB
Seeders: n/a
Leechers: n/a
Hells Kitty 2018 HDRip AC3 5 1 x264[MW]