Loading...
Loading...

Gomorra S02 MULTi 1080p BluRay HDLight x265-H4S5S

Seeders: n/a
Leechers: n/a
Completed: n/a

Age: 3 months    Visits: 89    Category: TV    Size: 9.7 GB

Posted by: H4S5S    Comments: Read Comments

Info Hash: 080E224BCC327A8062D11BDAA0E560CC9679D181



Torrent Description




H4S5S present


Gomorra
[ Saison 2 ]

Genre : Drame, Policier, Thriller
Produit en : 2016
Nombre d'épisodes : 12

[ Voir la fiche complète sur AlloCiné ]


[size=12]En Italie, la famille Savastano, dirigée par l'impitoyable Don Pietro, domine la mafia napolitaine.
En concurrence avec un autre clan de la Camorra et confronté à une nouvelle génération décidée à prendre de l'importance sans respecter les codes, Don Pietro doit penser à préparer sa succession.
Mais Genny, son fils, est loin d'avoir la maturité pour le succéder.
Ciro, bras droit loyal de Don Pietro, homme de main efficace et mentor de Genny, devra user de malice, de courage et d'influence pour défendre les intérêts de son chef.




Video(s) :
H.265 10-bit (x265)
BluRay 1080p @ ~1900 kbps

Language(s) :
French @ AC3 2.0 [192kbps]
Italian @ AC3 5.1 [320kbps]

Subtitle(s) :
Frencg (full)
English (full)



MAN OF STYLE - ROVERS - VENUE - AUTHORiTY - ArieS



MAMAMIA !

[/size]

Quote:



General
Format                                   : Matroska
Format version                           : Version 4 / Version 2
File size                                : 854 MiB
Duration                                 : 55mn 42s
Overall bit rate                         : 2 143 Kbps
Movie name                               : Gomorra.S02E01.MULTi.1080p.BluRay.HDLight.x265-H4S5S
Encoded date                             : UTC 2013-04-13 22:00:00
Writing application                      : mkvmerge v21.0.0 ('Tardigrades Will Inherit The Earth') 64-bit
Writing library                          : libebml v1.3.5 + libmatroska v1.4.8

Video
ID                                       : 1
Format                                   : HEVC
Format/Info                              : High Efficiency Video Coding
Format profile                           : Main [email protected]@Main
Codec ID                                 : V_MPEGH/ISO/HEVC
Duration                                 : 55mn 42s
Bit rate                                 : 1 589 Kbps
Width                                    : 1 920 pixels
Height                                   : 1 040 pixels
Display aspect ratio                     : 1.85:1
Frame rate mode                          : Constant
Frame rate                               : 25.000 fps
Color space                              : YUV
Chroma subsampling                       : 4:2:0
Bit depth                                : 10 bits
Bits/(Pixel*Frame)                       : 0.032
Stream size                              : 633 MiB (74%)
Title                                    : Gomorra.S02E01.MULTi.1080p.BluRay.HDLight.x265-H4S5S
Writing library                          : x265 2.4:[Mac OS X][clang 8.1.0][64 bit] 10bit
Encoding settings                        : cpuid=1173503 / frame-threads=2 / wpp / no-pmode / no-pme / no-psnr / no-ssim / log-level=2 / input-csp=1 / input-res=1920x1040 / interlace=0 / total-frames=0 / level-idc=0 / high-tier=1 / uhd-bd=0 / ref=4 / no-allow-non-conformance / no-repeat-headers / annexb / no-aud / no-hrd / info / hash=0 / no-temporal-layers / open-gop / min-keyint=25 / keyint=250 / bframes=4 / b-adapt=2 / b-pyramid / bframe-bias=0 / rc-lookahead=25 / lookahead-slices=4 / scenecut=40 / no-intra-refresh / ctu=64 / min-cu-size=8 / rect / no-amp / max-tu-size=32 / tu-inter-depth=1 / tu-intra-depth=1 / limit-tu=0 / rdoq-level=2 / dynamic-rd=0.00 / no-ssim-rd / signhide / no-tskip / nr-intra=0 / nr-inter=0 / no-constrained-intra / strong-intra-smoothing / max-merge=3 / limit-refs=3 / limit-modes / me=3 / subme=3 / merange=57 / temporal-mvp / weightp / no-weightb / no-analyze-src-pics / deblock=0:0 / sao / no-sao-non-deblock / rd=4 / no-early-skip / rskip / no-fast-intra / no-tskip-fast / no-cu-lossless / no-b-intra / rdpenalty=0 / psy-rd=2.00 / psy-rdoq=1.00 / no-rd-refine / analysis-mode=0 / no-lossless / cbqpoffs=0 / crqpoffs=0 / rc=crf / crf=23.0 / qcomp=0.60 / qpstep=4 / stats-write=0 / stats-read=0 / ipratio=1.40 / pbratio=1.30 / aq-mode=1 / aq-strength=1.00 / cutree / zone-count=0 / no-strict-cbr / qg-size=32 / no-rc-grain / qpmax=69 / qpmin=0 / sar=1 / overscan=0 / videoformat=5 / range=0 / colorprim=1 / transfer=1 / colormatrix=1 / chromaloc=0 / display-window=0 / max-cll=0,0 / min-luma=0 / max-luma=1023 / log2-max-poc-lsb=8 / vui-timing-info / vui-hrd-info / slices=1 / opt-qp-pps / opt-ref-list-length-pps / no-multi-pass-opt-rps / scenecut-bias=0.05 / no-opt-cu-delta-qp / no-aq-motion / no-hdr / no-hdr-opt / no-dhdr10-opt / refine-level=5 / no-limit-sao
Default                                  : Yes
Forced                                   : No
Color range                              : Limited
Color primaries                          : BT.709
Transfer characteristics                 : BT.709
Matrix coefficients                      : BT.709
Statistics Tags Issue                    : mkvmerge v21.0.0 ('Tardigrades Will Inherit The Earth') 64-bit 2018-03-01 23:34:28 / mkvmerge v21.0.0 ('Tardigrades Will Inherit The Earth') 64-bit 2013-04-13 22:00:00
FromStats_BitRate                        : 1629359
FromStats_Duration                       : 00:55:42.360000000
FromStats_FrameCount                     : 83559
FromStats_StreamSize                     : 680738131

Audio #1
ID                                       : 2
Format                                   : AC-3
Format/Info                              : Audio Coding 3
Format settings, Endianness              : Big
Codec ID                                 : A_AC3
Duration                                 : 55mn 42s
Bit rate mode                            : Constant
Bit rate                                 : 192 Kbps
Channel(s)                               : 2 channels
Channel positions                        : Front: L R
Sampling rate                            : 48.0 KHz
Frame rate                               : 31.250 fps (1536 SPF)
Bit depth                                : 16 bits
Compression mode                         : Lossy
Stream size                              : 76.5 MiB (9%)
Title                                    : VFF @ AC3 2.0
Language                                 : French
Service kind                             : Complete Main
Default                                  : Yes
Forced                                   : No
Statistics Tags Issue                    : mkvmerge v21.0.0 ('Tardigrades Will Inherit The Earth') 64-bit 2018-03-01 23:34:28 / mkvmerge v21.0.0 ('Tardigrades Will Inherit The Earth') 64-bit 2013-04-13 22:00:00
FromStats_BitRate                        : 192000
FromStats_Duration                       : 00:55:42.144000000
FromStats_FrameCount                     : 104442
FromStats_StreamSize                     : 80211456

Audio #2
ID                                       : 3
Format                                   : AC-3
Format/Info                              : Audio Coding 3
Format settings, Endianness              : Big
Codec ID                                 : A_AC3
Duration                                 : 55mn 42s
Bit rate mode                            : Constant
Bit rate                                 : 320 Kbps
Channel(s)                               : 6 channels
Channel positions                        : Front: L C R, Side: L R, LFE
Sampling rate                            : 48.0 KHz
Frame rate                               : 31.250 fps (1536 SPF)
Bit depth                                : 16 bits
Compression mode                         : Lossy
Stream size                              : 128 MiB (15%)
Title                                    : VO @ AC3 5.1
Language                                 : Italian
Service kind                             : Complete Main
Default                                  : No
Forced                                   : No
Statistics Tags Issue                    : mkvmerge v21.0.0 ('Tardigrades Will Inherit The Earth') 64-bit 2018-03-01 23:34:28 / mkvmerge v21.0.0 ('Tardigrades Will Inherit The Earth') 64-bit 2013-04-13 22:00:00
FromStats_BitRate                        : 320000
FromStats_Duration                       : 00:55:42.976000000
FromStats_FrameCount                     : 104468
FromStats_StreamSize                     : 133719040

Text #1
ID                                       : 4
Format                                   : UTF-8
Codec ID                                 : S_TEXT/UTF8
Codec ID/Info                            : UTF-8 Plain Text
Title                                    : Full
Language                                 : French
Default                                  : No
Forced                                   : No
Statistics Tags Issue                    : mkvmerge v21.0.0 ('Tardigrades Will Inherit The Earth') 64-bit 2018-03-01 23:34:28 / mkvmerge v21.0.0 ('Tardigrades Will Inherit The Earth') 64-bit 2013-04-13 22:00:00
FromStats_BitRate                        : 30
FromStats_Duration                       : 00:52:06.921000000
FromStats_FrameCount                     : 316
FromStats_StreamSize                     : 11758

Text #2
ID                                       : 5
Format                                   : UTF-8
Codec ID                                 : S_TEXT/UTF8
Codec ID/Info                            : UTF-8 Plain Text
Title                                    : Full
Language                                 : English
Default                                  : No
Forced                                   : No
Statistics Tags Issue                    : mkvmerge v21.0.0 ('Tardigrades Will Inherit The Earth') 64-bit 2018-03-01 23:34:28 / mkvmerge v21.0.0 ('Tardigrades Will Inherit The Earth') 64-bit 2013-04-13 22:00:00
FromStats_BitRate                        : 25
FromStats_Duration                       : 00:52:29.760000000
FromStats_FrameCount                     : 387
FromStats_StreamSize                     : 10090








Recently Added Torrents in TV

Trackers List

tracker name
udp://tracker.opentrackr.org:1337/announce
udp://tracker.leechers-paradise.org:6969/announce
udp://tracker.pirateparty.gr:6969/announce
udp://tracker.coppersurfer.tk:6969/announce
udp://tracker.mg64.net:2710/announce
udp://tracker.zer0day.to:1337/announce

Sharing Widget


Download torrent
9.7 GB
Seeders: n/a
Leechers: n/a
Gomorra S02 MULTi 1080p BluRay HDLight x265-H4S5S