Loading...
Loading...

Ferdinand 2017 1080p BluRay x264 Dual Audio [Hindi DD 5 1 - English DD 5 1] ESub [MW]

Seeders: 7
Leechers: 3
Completed: 4,811

Age: 3 months    Visits: 142    Category: Movies    Size: 1.7 GB

Posted by: moviezworldz    Comments: Read Comments

Info Hash: 42DAACF9CA37D33F8B628E6EC2DD1190EB43039E



Torrent Description








General
Format : Matroska
Format version : Version 4 / Version 2
File size : 1.67 GiB
Duration : 1 h 48 min
Overall bit rate : 2 206 kb/s

Video
ID : 1
Format : AVC
Format/Info : Advanced Video Codec
Format profile : [email protected]
Format settings : CABAC / 4 Ref Frames
Format settings, CABAC : Yes
Format settings, RefFrames : 4 frames
Codec ID : V_MPEG4/ISO/AVC
Duration : 1 h 48 min
Bit rate : 1 800 kb/s
Width : 1 920 pixels
Height : 804 pixels
Display aspect ratio : 2.40:1
Frame rate mode : Constant
Frame rate : 23.976 (24000/1001) FPS
Color space : YUV
Chroma subsampling : 4:2:0
Bit depth : 8 bits
Scan type : Progressive
Bits/(Pixel*Frame) : 0.049
Stream size : 1.35 GiB (81%)
Writing library : x264 core 148 r2708 86b7198
Default : Yes
Forced : No

Audio #1
ID : 3
Format : AC-3
Format/Info : Audio Coding 3
Codec ID : A_AC3
Duration : 1 h 48 min
Bit rate mode : Constant
Bit rate : 224 kb/s
Channel(s) : 6 channels
Channel positions : Front: L C R, Side: L R, LFE
Sampling rate : 48.0 kHz
Frame rate : 31.250 FPS (1536 SPF)
Bit depth : 16 bits
Compression mode : Lossy
Stream size : 173 MiB (10%)
Language : Hindi
Service kind : Complete Main
Default : Yes
Forced : No

Audio #2
ID : 4
Format : AC-3
Format/Info : Audio Coding 3
Codec ID : A_AC3
Duration : 1 h 48 min
Bit rate mode : Constant
Bit rate : 192 kb/s
Channel(s) : 6 channels
Channel positions : Front: L C R, Side: L R, LFE
Sampling rate : 48.0 kHz
Frame rate : 31.250 FPS (1536 SPF)
Bit depth : 16 bits
Compression mode : Lossy
Stream size : 148 MiB (9%)
Language : English
Service kind : Complete Main
Default : No
Forced : No

Text
ID : 2
Format : UTF-8
Codec ID : S_TEXT/UTF8
Codec ID/Info : UTF-8 Plain Text
Duration : 1 h 43 min
Bit rate : 123 b/s
Count of elements : 1828
Stream size : 93.2 KiB (0%)
Language : English
Default : Yes
Forced : No














Recently Added Torrents in Movies

Trackers List

tracker name
udp://tracker.opentrackr.org:1337/announce
udp://tracker.leechers-paradise.org:6969/announce
udp://tracker.pirateparty.gr:6969/announce
udp://tracker.coppersurfer.tk:6969/announce
udp://tracker.mg64.net:2710/announce
udp://tracker.zer0day.to:1337/announce

Sharing Widget


Download torrent
1.7 GB
Seeders: 7
Leechers: 3
Ferdinand 2017 1080p BluRay x264 Dual Audio [Hindi DD 5 1 - English DD 5 1] ESub [MW]