Loading...
Loading...

Ferdinand 2017 1080p BluRay Dual Audio Hindi DD 5 1 English 6CH MAVI

Seeders: 8
Leechers: 3
Completed: 6,244

Age: 3 months    Visits: 159    Category: Movies    Size: 4.3 GB

Posted by: sujit2324    Comments: Read Comments

Info Hash: CCBF22F50447C995FA0F5667A6731CA5CD40FD3D



Torrent Description






Movie Encode From Full BD/BDREMUX

Ferdinand 2017 1080p BluRay Dual Audio Hindi DD 5.1 English 6CH MAVI

Join Us Now FaceBook

Org Bluray Audio Source (Rohit Thanks For Audio)

Video
ID : 1
Format : AVC
Format/Info : Advanced Video Codec
Format profile : [email protected]
Format settings : CABAC / 5 Ref Frames
Format settings, CABAC : Yes
Format settings, RefFrames : 5 frames
Codec ID : V_MPEG4/ISO/AVC
Duration : 1 h 37 min
Bit rate : 5 000 kb/s
Width : 1 920 pixels
Height : 804 pixels
Display aspect ratio : 2.40:1
Frame rate mode : Constant
Frame rate : 23.976 (24000/1001) FPS
Color space : YUV
Chroma subsampling : 4:2:0
Bit depth : 8 bits
Scan type : Progressive
Bits/(Pixel*Frame) : 0.135
Stream size : 3.40 GiB (80%)
Language : English
Default : Yes
Forced : No
Color range : Limited
Color primaries : Generic film
Transfer characteristics : BT.709
Matrix coefficients : BT.709

Audio #1
ID : 2
Format : AC-3
Format/Info : Audio Coding 3
Codec ID : A_AC3
Duration : 1 h 37 min
Bit rate mode : Constant
Bit rate : 640 kb/s
Channel(s) : 6 channels
Channel positions : Front: L C R, Side: L R, LFE
Sampling rate : 48.0 kHz
Frame rate : 31.250 FPS (1536 SPF)
Bit depth : 16 bits
Compression mode : Lossy
Stream size : 446 MiB (10%)
Language : English
Service kind : Complete Main
Default : Yes
Forced : No

Audio #2
ID : 3
Format : AC-3
Format/Info : Audio Coding 3
Codec ID : A_AC3
Duration : 1 h 48 min
Bit rate mode : Constant
Bit rate : 448 kb/s
Channel(s) : 6 channels
Channel positions : Front: L C R, Side: L R, LFE
Sampling rate : 48.0 kHz
Frame rate : 31.250 FPS (1536 SPF)
Bit depth : 16 bits
Compression mode : Lossy
Stream size : 347 MiB (8%)
Language : Hindi
Service kind : Complete Main
Default : No
Forced : No

Text #1
ID : 4
Format : PGS
Codec ID : S_HDMV/PGS
Codec ID/Info : Picture based subtitle format used on BDs/HD-DVDs
Duration : 1 h 39 min
Bit rate : 28.7 kb/s
Count of elements : 2292
Stream size : 20.3 MiB (0%)
Language : English
Default : Yes
Forced : No

Text #2
ID : 5
Format : PGS
Codec ID : S_HDMV/PGS
Codec ID/Info : Picture based subtitle format used on BDs/HD-DVDs
Duration : 1 h 36 min
Bit rate : 41.0 kb/s
Count of elements : 3456
Stream size : 28.3 MiB (1%)
Title : SDH
Language : English
Default : No
Forced : No

Text #3
ID : 6
Format : PGS
Codec ID : S_HDMV/PGS
Codec ID/Info : Picture based subtitle format used on BDs/HD-DVDs
Duration : 1 h 46 min
Bit rate : 21.2 kb/s
Count of elements : 2310
Stream size : 16.2 MiB (0%)
Language : Hindi
Default : No
Forced : No

Menu
00:00:00.000 : en:00:00:00.000
00:03:37.801 : en:00:03:37.801
00:08:10.281 : en:00:08:10.281
00:11:51.461 : en:00:11:51.461
00:16:23.524 : en:00:16:23.524
00:24:14.870 : en:00:24:14.870
00:28:30.459 : en:00:28:30.459
00:34:03.124 : en:00:34:03.124
00:37:53.188 : en:00:37:53.188
00:40:54.160 : en:00:40:54.160
00:44:55.359 : en:00:44:55.359
00:49:15.995 : en:00:49:15.995
00:53:27.246 : en:00:53:27.246
00:59:40.952 : en:00:59:40.952
01:03:20.672 : en:01:03:20.672
01:06:23.271 : en:01:06:23.271
01:09:19.822 : en:01:09:19.822
01:12:18.918 : en:01:12:18.918
01:17:33.941 : en:01:17:33.941
01:20:55.059 : en:01:20:55.059
01:25:33.837 : en:01:25:33.837
01:30:38.391 : en:01:30:38.391
01:36:01.839 : en:01:36:01.839
00:00:47.144 : en:00:00:47.144
00:00:17.406 : en:00:00:17.406











Recently Added Torrents in Movies

Trackers List

tracker name
udp://tracker.opentrackr.org:1337/announce
udp://tracker.leechers-paradise.org:6969/announce
udp://tracker.pirateparty.gr:6969/announce
udp://tracker.coppersurfer.tk:6969/announce
udp://tracker.mg64.net:2710/announce
udp://tracker.zer0day.to:1337/announce

Sharing Widget


Download torrent
4.3 GB
Seeders: 8
Leechers: 3
Ferdinand 2017 1080p BluRay Dual Audio Hindi DD 5 1 English 6CH MAVI