Loading...
Loading...

18+ Anabolic Life 2017 Movies HDRip x264 5 1 with Sample ☻rDX☻

Seeders: n/a
Leechers: n/a
Completed: n/a

Age: 3 months    Visits: 133    Category: Movies    Size: 849.0 MB

Posted by: nehalpuja    Comments: Read Comments

Info Hash: 191FE7B7653E872D5A8A0296D63B3638D56B79E4



Torrent Description



18+ Anabolic Life 2017 Movies HDRip x264 5.1 with Sample ☻rDX☻
===============================================================================================

SCREEN SHOTS:



or

http://postimage.co.nr/2018/3/computers/1.html

File size : 839 MiB
Duration : 1 h 27 min
Overall bit rate mode : Constant
Overall bit rate : 1 342 kb/s
Movie name : 18+ Anabolic Life 2017 Movies HDRip x264 5.1 ☻rDX☻

Video
ID : 2
Format : AVC
Format/Info : Advanced Video Codec
Format profile : [email protected]
Format settings, CABAC : Yes
Format settings, ReFrames : 2 frames
Format settings, GOP : M=1, N=12
Codec ID : V_MPEG4/ISO/AVC
Duration : 1 h 27 min
Bit rate mode : Constant
Bit rate : 959 kb/s
Width : 720 pixels
Height : 304 pixels
Display aspect ratio : 2.35:1
Frame rate mode : Constant
Frame rate : 23.976 FPS
Color space : YUV
Chroma subsampling : 4:2:0
Bit depth : 8 bits
Scan type : Progressive
Bits/(Pixel*Frame) : 0.183
Stream size : 583 MiB (69%)
Title : ☻rDX☻
Default : Yes
Forced : No

Audio
ID : 1
Format : AC-3
Format/Info : Audio Coding 3
Mode extension : CM (complete main)
Format settings, Endianness : Big
Codec ID : A_AC3
Duration : 1 h 27 min
Bit rate mode : Constant
Bit rate : 384 kb/s
Channel(s) : 6 channels
Channel positions : Front: L C R, Side: L R, LFE
Sampling rate : 48.0 kHz
Frame rate : 31.250 FPS (1536 spf)
Bit depth : 16 bits
Compression mode : Lossy
Stream size : 240 MiB (29%)
Title : ☻rDX☻
Default : Yes
Forced : No



IMDB : http://www.imdb.com/title/tt3259276



Recently Added Torrents in Movies

Trackers List

tracker name
udp://tracker.opentrackr.org:1337/announce
udp://tracker.leechers-paradise.org:6969/announce
udp://tracker.pirateparty.gr:6969/announce
udp://tracker.coppersurfer.tk:6969/announce
udp://tracker.mg64.net:2710/announce
udp://tracker.zer0day.to:1337/announce

Sharing Widget


Download torrent
849.0 MB
Seeders: n/a
Leechers: n/a
18+ Anabolic Life 2017 Movies HDRip x264 5 1 with Sample ☻rDX☻